#TITLE:Prepare For War;
#SUBTITLE:;
#ARTIST:Dragonforce;
#TITLETRANSLIT:;
#SUBTITLETRANSLIT:;
#ARTISTTRANSLIT:;
#CREDIT:;
#BANNER:War-ba.png;
#BACKGROUND:War-bg.jpg;
#LYRICSPATH:;
#CDTITLE:Mus1c.png;
#MUSIC:Dragonforce - 07 Prepare For War.mp3;
#OFFSET:0.000;
#SAMPLESTART:29.000;
#SAMPLELENGTH:12.000;
#SELECTABLE:YES;
#BPMS:0.000=200.001;
#STOPS:;
#BGCHANGES:;
// cache tags:
#FIRSTBEAT:2.750;
#LASTBEAT:609.250;
#SONGFILENAME:Songs/Mus1c/Prepare For War/War.sm;
#HASMUSIC:1;
#HASBANNER:1;
#MUSICLENGTH:185.059;
// end cache tags

//---------------dance-single - ----------------
#NOTES:
     dance-single:
     :
     Hard:
     11:
     1.000,1.000,1.000,0.216,1.000,1292.000,400.000,40.000,0.000,3.000:
0000
0000
0000
0000
0000
0000
0000
0000
0000
0000
0000
1001
0000
0000
0000
0010
,
0000
0010
0000
0010
0000
0010
0000
0010
0000
0000
0000
0101
0000
0000
0000
0100
,
0000
0100
0000
0100
0000
0100
0000
0100
0000
0000
0000
1010
0000
0000
0000
0010
,
0000
0010
0000
0010
0000
0010
0000
0010
0000
0010
0000
0010
0001
1000
0001
1000
,
0001
1000
0001
1000
0001
1000
0001
1000
0001
1000
0001
1000
0001
0010
0001
0010
,
0100
1000
0001
0010
0100
1000
0001
0010
0100
1000
0001
0010
0100
0010
0100
0010
,
0100
0010
0100
0010
0100
0010
0100
0010
0100
0010
0001
0100
0001
0100
0001
0100
,
0001
0100
0001
0100
0001
0100
0001
0100
0001
0100
1000
0100
0010
0001
1000
0100
,
0010
0001
1000
0100
0010
0001
1000
0100
0010
0000
0000
1001
0000
0000
0000
0000
,
0000
0110
0000
0110
0000
0110
0000
0110
0000
0110
0000
0110
0000
0000
0000
0000
,
0000
1001
0000
1001
0000
1001
0000
1001
0000
1001
0000
2002
0000
0000
3003
0000
,
0000
0101
0000
0101
0000
0101
0000
0101
0000
0101
0000
0101
0000
0000
0000
0110
,
0000
1100
0000
0000
0000
2002
0000
0000
3003
0000
0000
0101
0000
0000
0000
0000
,
0000
0011
0000
0011
0000
0011
0000
0011
0000
0011
0000
0011
0000
0000
0000
0000
,
0000
1100
0000
1100
0000
1100
0000
1100
0000
1100
0000
1100
0000
0000
0000
0000
,
0000
1001
0000
1001
0000
1001
0000
1001
0000
1001
0000
0001
0010
0100
1000
0001
,
0010
0100
1000
0001
0010
0100
1000
0001
0010
0100
1000
0011
0000
0000
0000
0000
,
0000
0101
0000
0101
0000
0101
0000
0101
0000
0101
0000
0101
0000
0000
0000
0000
,
0000
1010
0000
1010
0000
1010
0000
1010
0000
1010
0000
2020
0000
0000
0000
3030
,
0000
0110
0000
0110
0000
0110
0000
0110
0000
0110
0000
0010
0100
0010
0100
0010
,
0100
0010
0000
0000
0000
1001
0000
1001
0000
0000
0000
0011
0000
0000
0000
0000
,
0000
1010
0000
1010
0000
1010
0000
1010
0000
1010
0000
1010
0000
0000
0000
0000
,
0000
1100
0000
1100
0000
1100
0000
1100
0000
1100
0000
2200
0000
3300
0000
0000
,
0000
0000
0000
0010
1000
0010
1000
0000
0000
0000
0000
0001
0010
0100
1000
0100
,
0010
0001
0010
0100
1000
0100
0010
0001
0010
0200
0000
0310
0000
0010
0000
0010
,
0000
0010
0000
0010
1000
0010
1000
0010
1000
0010
0000
1010
0000
1000
0000
1000
,
0000
1000
0000
1000
0000
1001
0000
0001
0000
0011
0000
0110
0000
0100
0000
0100
,
0000
0100
0000
0100
0000
0001
0010
0100
1000
0001
0010
0100
1000
0100
1000
0001
,
1000
0100
1000
0001
1000
0010
1000
0100
1000
0001
0100
0011
0000
0110
0000
0110
,
0000
0110
0000
1000
0100
0010
0001
1000
0100
0011
0000
1010
0000
1100
0000
1100
,
0000
1100
0000
1100
0000
1001
0000
0011
0000
0101
0000
1100
0000
0011
0000
0011
,
0000
0011
0000
0011
1000
0001
1000
0001
1000
0001
1000
0100
0010
1000
0010
1000
,
0010
1000
0001
0010
0100
1000
0001
0010
0100
1000
0000
0110
0000
0101
0000
0101
,
0000
0101
0000
0001
1000
0001
1000
0001
1000
0001
0000
1100
0000
1001
0000
1001
,
0000
1001
0000
1001
0000
1010
0000
0110
0000
0110
0000
1010
0000
0011
0000
0011
,
0000
0011
0000
0011
1000
0100
0010
0100
1000
0010
0001
0010
0100
1000
0100
1000
,
0100
1000
0001
0010
0100
1000
0001
0010
0100
1000
0010
0001
1000
0100
0010
0001
,
0010
0100
1000
0100
0010
0001
0010
0100
1000
0100
0010
0001
0010
0100
1000
0100
,
0010
0001
0220
0000
0000
0000
0330
0000
0000
0000
0000
0001
0010
0100
1000
0100
,
1000
0010
1000
0010
1000
0000
0000
2002
3003
0000
0000
0010
0100
0010
0100
0010
,
0100
0001
0010
0100
1000
0100
1000
0100
2002
0000
3003
0000
0000
0000
0110
0000
,
0001
1100
0001
0110
0001
1001
0100
0011
,
0110
1000
0001
1010
0100
0001
0010
0101
,
0010
1100
0001
0110
1000
0011
0100
1001
,
0101
0010
0100
1100
0001
0100
1000
0011
,
0100
1100
0001
0110
1000
0101
0010
1100
,
0101
0010
0100
1001
0010
0110
0001
0100
,
0010
0000
1001
0000
0100
0000
1010
0000
0100
0000
0010
1000
0010
1000
0010
1000
,
0010
1000
0001
0010
0100
1000
0001
0010
0100
1000
0000
0000
0000
0000
1100
0000
,
0001
0101
0010
1100
0010
0101
0010
1100
,
0101
0010
0100
1001
0100
0001
1000
0110
,
0001
1010
0100
0011
0100
1100
0100
0011
,
0110
0001
1000
0011
0100
0010
1000
0101
,
0010
1001
0100
0011
0100
1010
0100
0011
,
1010
0100
0001
1100
0001
0101
0010
1000
,
0001
0000
0110
0000
1000
0000
0110
0000
0001
0000
1010
0001
0100
0001
1000
0001
,
0010
0001
0100
0001
1000
0001
0100
0001
0010
0000
1000
0000
0001
0000
1010
0000
,
0010
1100
0001
1001
0010
0011
0100
0011
,
1100
0001
1000
0011
0001
1001
0010
0100
,
1000
0110
0001
1010
0010
0101
0100
1001
,
0110
0001
0010
0100
1000
0001
1000
0011
,
0100
0011
1000
0110
0100
0011
0100
0001
,
1010
0100
0001
0011
0100
1001
0100
0010
,
1100
0000
0001
0000
0010
0000
1100
0000
0001
0000
0010
0100
0010
0100
0010
0100
,
0010
0100
0010
0100
0020
0000
0000
0030
0000
0000
0011
0000
0000
0000
1010
0000
,
1010
0000
0000
0110
0000
0110
0000
0011
,
0011
0000
0000
0110
0000
0110
0100
0100
,
0101
0100
0100
1100
0100
0101
0100
0100
,
0100
0000
0100
0000
0100
0000
0100
0000
0100
0000
0001
0010
0100
1000
0001
0010
,
0100
1000
0001
0010
0100
1000
0001
0010
0100
1000
0010
0100
0010
0100
0010
0100
,
0010
0100
0010
0100
0010
0100
0010
0100
0010
0100
0010
0100
0001
1000
0001
1000
,
0001
1000
0001
1000
0001
1000
0001
1000
0001
1000
0001
1000
0100
0010
0001
1000
,
0100
0010
0001
1000
0100
0010
0001
1000
0100
0010
0101
0000
0010
0000
1001
0000
,
1100
0010
1000
0110
0001
1100
0010
0101
,
0010
0011
0100
1010
0100
0110
1000
1001
,
1010
0100
0001
1010
0100
0011
0100
1000
,
0010
0001
0100
1010
0001
0110
1000
0011
,
0110
1000
0100
0011
0100
0011
0100
1010
,
1100
0001
0100
1001
0100
1010
0001
0100
,
1010
0100
0001
1010
0100
0022
0033
0000
,
0000
1100
0000
0011
0000
1100
0000
0220
,
2332
0000
0000
0000
,
0000
0000
0000
0000
3003
0110
0000
0000
,
0000
0101
0000
0101
0000
0101
0000
0101
0000
0101
0000
0101
0000
0000
0000
0000
,
0000
1100
0000
1100
0000
1100
0000
1100
0000
1100
0000
2200
0000
0000
3300
0000
,
0000
0110
0000
0110
0000
0110
0000
0110
0000
0110
0000
1001
0000
0000
0000
1100
,
0000
1100
0000
0000
0000
0011
0000
0000
0000
0000
0000
1010
0000
0000
0000
0000
,
0000
0101
0000
0101
0000
0101
0000
0101
0000
0101
1000
0001
1000
0001
1000
0001
,
1000
0001
1000
0001
0000
0001
0000
0001
0000
0001
0000
0001
0100
0001
0100
0001
,
0100
0001
0100
0001
0100
0001
0000
0001
0000
0001
0000
0001
1000
0100
0010
0001
,
1000
0100
0010
0001
1000
0100
0010
0001
0000
0000
1010
0000
0000
0000
0000
0000
,
0000
1100
0000
1100
0000
1100
0000
1100
0000
1100
0000
1100
0000
0000
0000
0000
,
0000
0011
0000
0011
0000
0011
0000
0011
0000
0011
0000
0022
0000
0033
0000
0000
,
0000
1001
0000
1001
0000
1001
0000
1001
0000
0010
1000
0010
1000
0010
1000
0010
,
1000
0000
1100
1100
0000
0101
0000
0000
,
0000
0101
0000
0101
0000
0101
0000
0101
0000
0101
0000
0101
0000
0000
0000
0000
,
0000
1010
0000
1010
0000
1010
0000
1010
0000
1010
0000
2010
0000
0000
0000
0000
,
3000
0001
0010
0100
1000
0001
0010
0100
0000
0001
0000
0010
1000
0010
1000
0010
,
1000
0010
1000
0010
1000
0010
1000
0010
1000
0000
0000
0010
0000
0010
0000
0010
,
0000
0010
0000
0001
1000
0001
1000
0001
1000
0001
0010
0100
1000
0001
0010
0100
,
1000
0001
0010
0100
1000
0001
0010
0100
1000
0001
0010
0100
1000
0001
0010
0100
,
1000
0001
0010
0100
2000
0000
0000
3000
0000
0000
0000
0010
0100
0010
0100
0000
,
0000
0000
1000
0100
1000
0100
0001
0010
0100
1000
0000
0000
0001
0100
0001
0100
,
0000
0000
0100
1000
0100
1000
0000
0000
0110
0000
0000
1000
0100
1000
0100
0000
,
0001
0100
0001
0100
0001
0010
0100
1000
0000
0000
0100
1000
0100
1000
0000
0000
,
0001
0100
0001
0100
0000
0000
0000
1010
0000
0000
0100
1000
0100
1000
0000
0000
,
0010
0100
0010
0100
0001
0010
0100
1000
0000
0000
0010
1000
0010
1000
0000
0000
,
0000
0100
0010
0100
0010
0000
0000
1100
0000
0000
0001
0000
1100
0000
0010
0000
,
0101
0000
1000
0000
0110
0000
1000
0000
0101
0000
0010
0100
0010
0100
0010
0100
,
0010
0100
0010
0100
0010
0100
0010
0100
0010
0100
0010
0000
0000
0000
1010
0000
,
0100
0001
0010
1100
0001
0010
0100
1001
,
0100
0010
1000
0101
1000
0100
0010
0101
,
1000
0010
0100
0011
0100
1000
0001
0110
,
1000
0001
0100
1010
0100
0001
0010
1100
,
0001
0100
0010
1001
0100
0010
0001
0110
,
1000
0001
0100
1001
0010
0001
0100
1001
,
0100
0000
0010
0000
1000
0000
0101
0000
0010
0000
1000
0100
0010
0001
1000
0100
,
0010
0001
1000
0100
0010
0001
1000
0100
0010
0001
0000
0000
0000
0000
1010
0000
,
0100
1001
0100
0011
1000
0110
0001
1010
,
1001
0100
0010
0011
1000
0101
0010
1100
,
0011
0100
0010
1010
0100
0110
1000
0101
,
0110
1000
0001
0100
0010
1000
0001
1100
,
0010
1001
0100
0011
0100
0101
0010
0110
,
1010
0100
0001
1100
0010
0101
0010
1000
,
0101
0010
1000
1001
0010
0012
0000
0000
,
0000
0213
0000
0300
0000
1001
0000
1001
,
1001
0000
0000
0101
0000
1010
0000
0110
,
0110
0000
0000
1100
0000
0110
0010
0010
,
1010
0010
0010
0011
0010
1010
0010
0010
,
0010
0010
0010
0110
0100
1100
1000
1100
,
0110
0010
0010
0011
0001
1001
1000
1010
,
0011
0001
0001
0101
0100
1100
1000
1100
,
0110
0010
0010
0011
0001
0101
0100
0100
,
0100
1100
1000
1000
1000
1010
0100
1001
,
1010
0100
0001
1100
0001
0110
1000
0101
,
0010
0011
0100
1001
0100
0110
0001
1100
,
1001
0110
0001
1010
0100
1001
0100
1000
,
0010
0100
0001
1010
0100
0011
0100
1010
,
0110
0001
0100
1001
0100
0011
0100
1010
,
0110
0001
1000
0101
0010
1100
0001
0100
,
1001
0100
0010
0110
0001
1100
0000
0000
,
0000
1001
0000
0110
0000
1001
0000
2002
,
3223
0000
0000
0000
,
0000
0000
0000
0000
,
0000
0000
0000
0000
,
0000
0000
0000
0000
0330
0000
0000
0000
0000
0000
0000
0000
0000
0000
0000
0000
0000
0000
0000
0000
0000
0000
0000
0010
0000
0100
0000
0010
0000
0000
0000
1000
,
0000
0000
0000
0000
0000
0001
0000
0000
0000
0000
0000
0010
0000
0000
0000
0000
0000
0100
0000
0000
0000
0000
0000
0001
0000
0000
0000
0000
0000
1001
0000
0000
,
0000
0020
0000
0000
,
0000
0000
0000
0000
0000
0000
0030
0000
0100
0000
0010
0000
0100
0000
0010
0000
2000
0000
0000
0000
0000
0001
0000
0000
,
0000
0000
0100
0000
0000
0000
0000
0000
0010
0000
0000
0100
3001
0010
0100
1000
,
0100
0002
0000
0000
0000
0000
0000
0000
0203
0000
0000
0000
0301
0010
0100
1000
,
0100
0010
0001
0010
0100
0010
2002
0000
0000
0000
0000
0000
0000
0000
0000
0000
,
0000
0000
0000
0000
0000
3003
0000
0000
0000
0000
0000
0000
0000
0000
0000
0000
;

//---------------dance-single - ----------------
#NOTES:
     dance-single:
     :
     Challenge:
     12:
     1.000,1.000,1.000,0.151,1.000,1710.000,209.000,28.000,0.000,5.000:
0000
0000
0000
0000
0000
0000
0000
0000
0000
0000
0000
1101
0000
0000
0000
0011
,
0000
0011
0000
0011
0000
0011
0000
0011
0000
0000
0000
1011
0000
0000
0000
0110
,
0000
0110
0000
0110
0000
0110
0000
0110
0000
0000
0000
1110
0000
0000
0000
0110
,
0000
0110
0000
0110
0000
0110
0000
0110
0000
0110
0000
0110
0001
1000
0001
1000
,
0001
1000
0001
1000
0001
1000
0001
1000
0001
1000
0001
1000
0001
0010
0001
0010
,
0100
1000
0001
0010
0100
1000
0001
0010
0100
1000
0001
0010
0100
0010
0100
0010
,
0100
0010
0100
0010
0100
0010
0100
0010
0100
0010
0001
0100
0001
0100
0001
0100
,
0001
0100
0001
0100
0001
0100
0001
0100
0001
0100
1000
0100
0010
0001
1000
0100
,
0010
0001
1000
0100
0010
0001
1000
0100
0010
0000
0000
1000
0100
0010
0001
1000
,
0100
0010
0100
1000
0001
0010
0001
0100
0010
1000
0100
0010
0001
0100
0010
1000
,
0100
0010
0001
1000
0100
0010
0100
1000
0010
0001
0100
1000
0100
0001
0010
0001
,
0010
0100
1000
0100
0010
0001
0010
0100
0010
0001
1000
0100
1000
0001
0010
1000
,
0100
0010
0001
0100
0010
0100
0010
1000
0100
0010
0001
1000
0100
0010
0100
1000
,
0001
0010
0001
0010
1000
0100
1000
0001
0010
0100
1000
0001
0010
0100
0010
0001
,
0100
0010
1000
0100
0010
0001
0100
0010
1000
0100
0010
0001
0100
0010
1000
0100
,
0010
0100
1000
0001
0010
0001
0100
0010
0100
1000
0100
0001
0010
0100
1000
0001
,
0010
0100
1000
0001
0010
0100
1000
0001
0010
0100
1000
0001
0010
0100
0010
0001
,
1000
0100
0010
0001
0100
0010
0100
0001
0010
0100
1000
0010
0001
0100
1000
0001
,
0010
0100
0010
0001
0100
0010
1000
0001
0010
1000
0100
2000
0000
0000
0000
3000
,
0100
0001
0010
1000
0100
0010
0001
1000
0100
0001
1000
0010
0100
0010
0100
0010
,
0100
0010
1000
0100
0010
0001
1000
0100
1000
0100
1000
0010
0100
0001
0010
0100
,
1000
0010
0100
0001
0010
0100
1000
0010
0100
0001
0010
0100
0010
0001
1000
0100
,
0010
0001
0010
0100
1000
0001
0010
1000
0100
0001
0010
0100
0010
1000
0010
0001
,
0100
1000
0001
0010
1000
0010
1000
0000
0000
0000
0000
0001
0010
0100
1000
0100
,
0010
0001
0010
0100
1000
0100
0010
0001
0010
0200
0000
0310
0000
0010
0000
0010
,
0000
0010
0000
0010
1000
0010
1000
0010
1000
0010
0000
1010
0000
1000
0000
1000
,
0000
1000
0000
1000
0000
1001
0000
0001
0000
0011
0000
0110
0000
0100
0000
0100
,
0000
0100
0000
0100
0000
0001
0010
0100
1000
0001
0010
0100
1000
0100
1000
0001
,
1000
0100
1000
0001
1000
0010
1000
0100
1000
0001
0100
0011
0000
0110
0000
0110
,
0000
0110
0000
1000
0100
0010
0001
1000
0100
0011
0000
1010
0000
1100
0000
1100
,
0000
1100
0000
1100
0000
1001
0000
0011
0000
0101
0000
1100
0000
0011
0000
0011
,
0000
0011
0000
0011
1000
0001
1000
0001
1000
0001
1000
0100
0010
1000
0010
1000
,
0010
1000
0001
0010
0100
1000
0001
0010
0100
1000
0000
0110
0000
0101
0000
0101
,
0000
0101
0000
0001
1000
0001
1000
0001
1000
0001
0000
1100
0000
1001
0000
1001
,
0000
1001
0000
1001
0000
1010
0000
0110
0000
0110
0000
1010
0000
0011
0000
0011
,
0000
0011
0000
0011
1000
0100
0010
0100
1000
0010
0001
0010
0100
1000
0100
1000
,
0100
1000
0001
0010
0100
1000
0001
0010
0100
1000
0010
0001
1000
0100
0010
0001
,
0010
0100
1000
0100
0010
0001
0010
0100
1000
0100
0010
0001
0010
0100
1000
0100
,
0010
0001
0220
0000
0000
0000
0330
0000
0000
0000
0000
0001
0010
0100
1000
0100
,
1000
0010
1000
0010
1000
0000
0000
2002
3003
0000
0000
0010
0100
0010
0100
0010
,
0100
0001
0010
0100
1000
0100
1000
0100
2002
0000
3003
0100
0010
0100
1001
0000
,
0100
0000
0001
0000
0010
0000
1100
0000
0100
0000
0001
1000
0100
1000
0100
0000
,
0001
0000
1000
0000
0010
0000
0101
0000
1000
0000
0100
0010
0001
0010
0001
0000
,
0100
0000
1000
0000
0001
0000
0110
0000
1000
0000
0001
0100
0010
0100
1000
0000
,
0001
0000
0010
0000
0100
0000
1100
0000
0010
0000
1000
0001
0010
0100
1000
0000
,
0001
0000
0010
0000
0001
0000
1100
0000
0010
0000
1000
0010
0100
0010
0100
0000
,
0001
0000
1000
0000
0010
0000
1100
0000
0001
0000
1000
0100
0010
0100
0011
0000
,
0100
0000
0010
0000
0100
0000
1001
0000
1000
0000
0010
1000
0010
1000
0010
1000
,
0010
1000
0001
0010
0100
1000
0001
0010
0100
1000
0000
0000
0000
0000
1100
0000
,
0010
0101
0010
1100
0001
0110
0001
1100
,
0001
0110
0100
1001
0010
0011
1000
0110
,
0001
0000
1010
0000
0100
0000
0011
0000
0001
0000
1100
0010
0100
0010
0100
0010
,
0100
0010
0100
0010
0100
0010
0200
0000
0000
0000
0311
0000
1000
0000
0101
0000
,
0010
1001
0100
0011
0100
1010
0001
0110
,
1000
0000
0101
0000
0010
0000
1100
0000
0010
0000
0101
1000
0100
0010
0001
1000
,
0100
0010
0001
1000
0100
0010
0001
1000
0100
0010
0001
0010
0100
1000
0001
0010
,
0100
1000
0001
0010
0100
1000
0001
0010
0100
0000
1000
0000
0001
0000
1000
0000
,
0010
0100
0001
1000
0010
0001
0100
0010
,
1000
0000
0001
0000
1000
0000
0010
0000
0001
0000
1000
0100
1000
0100
1000
0100
,
1000
0100
1000
0100
1000
0100
1000
0100
1000
0100
0010
0001
0010
0001
0010
0001
,
0010
0001
0010
0001
0010
0001
0010
0001
0010
0000
0001
0000
1000
0000
0010
0000
,
0100
0001
1000
0010
0100
0010
0100
0001
,
1000
0100
0001
0010
0100
1000
0100
0010
,
0100
0000
0001
0000
0010
0000
1000
0000
0001
0000
0010
0100
0010
0100
0010
0100
,
0010
0100
0010
0100
0020
0000
0000
0030
0000
0000
0110
0000
0000
0000
0110
0000
,
0110
0000
0000
0110
0000
0110
0000
0110
,
0110
0000
0000
1001
0000
0110
1100
1100
,
0101
1100
1100
0110
1100
0101
1100
1100
,
1100
0000
1100
0000
1100
0000
1100
0000
1100
0000
0001
0010
0100
1000
0001
0010
,
0100
1000
0001
0010
0100
1000
0001
0010
0100
1000
0010
0100
0010
0100
0010
0100
,
0010
0100
0010
0100
0010
0100
0010
0100
0010
0100
0010
0100
0001
1000
0001
1000
,
0001
1000
0001
1000
0001
1000
0001
1000
0001
1000
0001
1000
0100
0010
0001
1000
,
0100
0010
0001
1000
0100
0010
0001
1000
0100
0010
0101
0000
0010
0000
1001
0000
,
1100
0010
1000
0110
0001
1100
0010
0101
,
0010
0011
0100
1010
0100
0110
1000
1001
,
1010
0100
0001
1010
0100
0011
0100
1000
,
0010
0001
0100
1010
0001
0110
1000
0011
,
0110
1000
0100
0011
0100
0011
0100
1010
,
1100
0000
0001
0000
0100
0000
1001
0000
0100
0000
1010
0100
0010
0100
0010
0100
,
0010
0100
0010
0100
0010
0100
0010
0100
0010
0100
0022
0000
0033
0000
0000
0000
,
0000
0000
1100
0000
0000
0000
0011
0000
0000
0000
1100
0001
0100
0001
0100
0010
,
0100
0010
0001
1000
0001
1000
0001
1000
0001
1000
0001
1000
0100
0010
0001
1000
,
0100
0010
0001
1000
0100
0010
0001
1000
0100
0010
0101
1000
0100
0010
0001
1000
,
0100
0010
0100
1000
0001
0010
0001
0100
0010
1000
0100
0010
0001
0100
0010
1000
,
0100
0010
0001
1000
0100
0010
0100
1000
0001
0010
0100
1000
0001
0010
0100
0001
,
1000
0100
0001
0010
1000
0100
0001
0010
0100
1000
0001
0010
0100
0010
0001
1000
,
0100
1000
0001
0010
0100
1000
0100
0010
0001
1000
0100
0010
0100
1000
0001
0010
,
0001
1000
0100
0010
0001
1000
0100
0010
0001
0010
1000
0001
1000
0001
1000
0001
,
1000
0001
1000
0001
0000
0001
0000
0001
0000
0001
0000
0001
0100
0001
0100
0001
,
0100
0001
0100
0001
0100
0001
0000
0001
0000
0001
0000
0001
1000
0100
0010
0001
,
1000
0100
0010
0001
1000
0100
0010
0001
0000
0000
1010
0001
0010
0100
1000
0001
,
0010
0100
0010
0001
1000
0100
1000
0010
0100
0001
0010
0100
1000
0010
0100
0001
,
0010
0100
0010
0001
1000
0100
0001
1000
0100
0001
0010
1000
0001
0010
0100
1000
,
0001
0010
0100
0010
0001
1000
0100
0001
0100
0010
1000
0010
1000
0010
1000
0010
,
1000
0000
0000
0000
1100
0000
1100
0000
0000
0000
1001
0100
0010
0100
0010
0001
,
1000
0001
1000
0001
0010
0100
1000
0010
0100
0001
0010
0100
1000
0001
0010
0100
,
0010
0001
1000
0100
1000
0010
0100
0001
0010
1000
0001
2010
0000
0000
0000
0000
,
3000
0001
0010
0100
1000
0001
0010
0100
0000
0001
0000
0010
1000
0010
1000
0010
,
1000
0010
1000
0010
1000
0010
1000
0010
1000
0000
0000
0010
0000
0010
0000
0010
,
0000
0010
0000
0001
1000
0001
1000
0001
1000
0001
0010
0100
1000
0001
0010
0100
,
1000
0001
0010
0100
1000
0001
0010
0100
1000
0001
0010
0100
1000
0001
0010
0100
,
1000
0001
0010
0100
2000
0000
0000
3000
0000
0000
0000
0010
0100
0010
0100
0000
,
0000
0000
1000
0100
1000
0100
0001
0010
0100
1000
0000
0000
0001
0100
0001
0100
,
0000
0000
0100
1000
0100
1000
0100
0010
0101
0000
0000
1000
0100
1000
0100
0000
,
0001
0100
0001
0100
0001
0010
0100
1000
0000
0000
0100
1000
0100
1000
0000
0000
,
0001
0100
0001
0100
0000
0000
0000
1010
0000
0000
0100
1000
0100
1000
0000
0000
,
0010
0100
0010
0100
0001
0010
0100
1000
0000
0000
0010
1000
0010
1000
0000
0000
,
0000
0100
0010
0100
0010
0100
0001
1100
0000
0000
0001
0000
1000
0000
0010
0000
,
0001
0000
1000
0000
0010
0000
1000
0000
0100
0000
0010
0100
0010
0100
0010
0100
,
0010
0100
0010
0100
0010
0100
0010
0100
0010
0100
0010
0000
0001
1000
0001
0000
,
0100
1000
0100
1000
0100
1000
0100
1000
0100
0000
0001
0010
0100
1000
0000
0000
,
0001
0100
0001
0100
0001
0100
0001
0200
0000
0300
0000
1000
0100
1000
0000
0000
,
0010
1000
0010
1000
0010
1000
0010
1000
0010
0000
0000
0000
1100
0010
0100
0010
,
0100
0010
0100
0010
0100
0010
0100
0020
0000
0030
0000
0100
0001
0100
0001
0000
,
0000
0001
0010
0001
0010
0001
0010
0001
0010
0000
0000
1000
0010
1000
0010
0000
,
0000
0001
1000
0001
1000
0001
1000
0002
0003
0000
0000
0001
0010
0100
1000
0001
,
0010
0100
1000
0001
0010
0100
1000
0001
0010
0100
1000
0100
0010
0001
1000
0100
,
0010
0001
1000
0100
0010
0001
1000
0100
0010
0001
0000
0000
0100
0000
1000
0000
,
0001
1000
0010
0100
0001
1000
0010
0001
,
0100
0000
0010
0000
1000
0000
0010
0000
0001
0000
1000
0010
1000
0010
1000
0010
,
1000
0010
1000
0010
1000
0010
1000
0010
1000
0001
0100
0001
0100
0001
0100
0001
,
0100
0001
0100
0001
0100
0001
0100
0001
0100
0001
0100
0001
0100
0000
0001
0000
,
1000
0010
0100
0001
1000
0001
0100
1000
,
0100
0001
1000
0010
0001
0100
0010
1000
,
0100
0000
0001
0000
0100
0000
1000
0000
0010
0000
0001
1000
0001
1000
0001
1000
,
0001
1000
0001
1000
0002
0000
0000
0003
0000
0000
1001
0000
0000
0000
1001
0000
,
1001
0000
0000
1001
0000
1001
0000
1001
,
1001
0000
0000
0110
0000
1001
0110
0110
,
1001
0110
0110
1001
0110
1001
0110
0110
,
0110
0000
0110
0000
0110
0000
0110
0000
0110
0000
1000
0100
0010
0001
1000
0100
,
0010
0001
1000
0100
0010
0001
1000
0100
0010
0001
0010
1000
0010
1000
0010
1000
,
0010
1000
0010
1000
0010
1000
0010
1000
0010
1000
0010
1000
0010
0100
0010
0100
,
0010
0100
0010
0100
0010
0100
0010
0100
0010
0100
0010
0001
0010
0100
1000
0001
,
0010
0100
1000
0001
0010
0100
1000
0001
0010
0100
1010
0000
0100
0000
1001
0000
,
1010
0100
0001
1100
0001
0110
1000
0101
,
0010
0011
0100
1001
0100
0110
0001
1100
,
1001
0110
0001
1010
0100
1001
0100
1000
,
0010
0100
0001
1010
0100
0011
0100
1010
,
0110
0001
0100
1001
0100
0011
0100
1010
,
0110
0000
0001
0000
1000
0000
0101
0000
0010
0000
1001
0100
1000
0001
1000
0010
,
1000
0100
1000
0001
1000
0010
1000
0100
1000
0001
1010
0000
0000
0000
0000
0000
,
0000
1001
0000
0110
0000
1001
0000
2002
,
3223
0000
0000
0000
,
0000
0000
0000
0000
,
0000
0000
0000
0000
,
0000
0000
0000
0000
0330
0000
0000
0000
0000
0000
0000
0000
0000
0000
0000
0000
0000
0000
0000
0000
0000
0000
0000
0010
0000
0100
0000
0010
0000
0000
0000
1000
,
0000
0000
0000
0000
0000
0001
0000
0000
0000
0000
0000
0010
0000
0000
0000
0000
0000
0100
0000
0000
0000
0000
0000
0001
0000
0000
0000
0000
0000
1001
0000
0000
,
0000
0020
0000
0000
,
0000
0000
0000
0000
0000
0000
0030
0000
0100
0000
0010
0000
0100
0000
0010
0000
2000
0000
0000
0000
0000
0001
0000
0000
,
0000
0000
0100
0000
0000
0000
0000
0000
0010
0000
0000
0100
3001
0010
0100
1000
,
0100
0002
0000
0000
0000
0000
0000
0000
0203
0000
0000
0000
0301
0010
0100
1000
,
0100
0010
0001
0010
0100
0010
2002
0000
0000
0000
0000
0000
0000
0000
0000
0000
,
0000
0000
0000
0000
0000
3003
0000
0000
0000
0000
0000
0000
0000
0000
0000
0000
;
